Login
Username:
Password:
[Signup]
[Recover Account]


Browse Torrents

Poll


You must be logged in to view polls



Latest Torrents
Night.School.2018....
- [Size: 706.30 MB]

When.Jeff.Tried.to...
- [Size: 1.30 GB]

Dangerous Minds (1...
- [Size: 1.03 GB]

Nowhere.Boys.S04E0...
- [Size: 191.10 MB]

Stephen.Colbert.20...
- [Size: 651.49 MB]


Torrent Details For "Everything.Beautiful.Is.Far.Away.2017.720p.AMZN.WEBRip.DDP5.1.x264-NTG"

Everything.Beautiful.Is.Far.Away.2017.720p.AMZN.WEBRip.DDP5.1.x264-NTG

Download this torrent | Magnet Download
Health:
Seeds: 13
Leechers: 2
Completed: 343 
Last Checked: 04-12-2018 18:51:59
External Torrent
Update Stats



Images Host

Poster


iMDB
Imdb Picture Title: Everything Beautiful Is Far Away
Year: 2017
Runtime: 91 minutes
Votes: 30
Rating: 7.0/10
Language: English
Country: USA
All Genres: Fantasy, Sci-Fi
Plot Outline: A guy, a girl, and a robothead hike across a desert planet in search of a mythical lake.
Director: Pete Ohs
Andrea Sisson
Writing By: Pete Ohs,
Produced By: Saul Germaine,Karl Jacob,Pete Ohs,Michael Prall,Andrea Sisson,
Music: Alan Palomo
Cast:
Julia Garner as Rola
Joseph Cross as Lernert
C.S. Lee as The Stranger
Jillian Mayer as Susan


Watch-Free-HD     Download

Details
Name:Everything.Beautiful.Is.Far.Away.2017.720p.AMZN.WEBRip.DDP5.1.x264-NTG
Description:
Video
ID : 1
Format : AVC
Format/Info : Advanced Video Codec
Format profile : [email protected]
Format settings : CABAC / 5 Ref Frames
Format settings, CABAC : Yes
Format settings, ReFrames : 5 frames
Codec ID : V_MPEG4/ISO/AVC
Duration : 1 h 31 min
Bit rate mode : Variable
Bit rate : 1 868 kb/s
Maximum bit rate : 4 500 kb/s
Width : 1 280 pixels
Height : 720 pixels
Display aspect ratio : 16:9
Frame rate mode : Constant
Frame rate : 23.976 (24000/1001) FPS
Color space : YUV
Chroma subsampling : 4:2:0
Bit depth : 8 bits
Scan type : Progressive
Bits/(Pixel*Frame) : 0.085
Stream size : 1.19 GiB (74%)
Default : Yes
Forced : No
Color range : Limited
Color primaries : BT.709
Transfer characteristics : BT.709
Matrix coefficients : BT.709

Audio
ID : 2
Format : E-AC-3
Format/Info : Enhanced AC-3
Commercial name : Dolby Digital Plus
Codec ID : A_EAC3
Duration : 1 h 31 min
Bit rate mode : Constant
Bit rate : 640 kb/s
Channel(s) : 6 channels
Channel layout : L R C LFE Ls Rs
Sampling rate : 48.0 kHz
Frame rate : 31.250 FPS (1536 SPF)
Compression mode : Lossy
Stream size : 417 MiB (26%)
Language : English
Service kind : Complete Main
Default : Yes
Forced : No



 http://imagecurl.com/viewer.p...6053760059775150.png


 http://imagecurl.com/viewer.p...9753294738924244.png


 http://imagecurl.com/viewer.p...3154635.png[/center]
Category:Movies > WEB-HD
Lang:English  English
Total Size:1.60 GB
Info Hash:955f7d68834d7dee04765698e8cde7d3f4111fea
Added By:Scene
Date Added:03-12-2018 13:44:44
Downloads:41

Ratings:Not Yet Rated (Log in to rate it)


Tracker:
http://tracker.trackerfix.com:80/announce


File List: 


Comments

No comments still posted

Top
Copyright 2018 DownloadHD -|- Page Generated In 0.321437 secs.
-|- RSS Feed -|- Feed Info